<?xml version="1.0" standalone="no"?>
<!DOCTYPE svg PUBLIC "-//W3C//DTD SVG 1.1//EN" "http://www.w3.org/Graphics/SVG/1.1/DTD/svg11.dtd" >
<svg xmlns="http://www.w3.org/2000/svg">
<metadata></metadata>
<defs>
<font id="LeagueGothicRegular" horiz-adv-x="724" >
<font-face units-per-em="2048" ascent="1505" descent="-543" />
<missing-glyph horiz-adv-x="315" />
<glyph horiz-adv-x="0" />
<glyph horiz-adv-x="2048" />
<glyph unicode="&#xd;" horiz-adv-x="682" />
<glyph unicode=" "  horiz-adv-x="315" />
<glyph unicode="&#x09;" horiz-adv-x="315" />
<glyph unicode="&#xa0;" horiz-adv-x="315" />
<glyph unicode="!" horiz-adv-x="387" d="M74 1505h239l-55 -1099h-129zM86 0v227h215v-227h-215z" />
<glyph unicode="&#x22;" horiz-adv-x="329" d="M57 1505h215l-30 -551h-154z" />
<glyph unicode="#" horiz-adv-x="1232" d="M49 438l27 195h198l37 258h-196l26 194h197l57 420h197l-57 -420h260l57 420h197l-58 -420h193l-27 -194h-192l-37 -258h190l-26 -195h-191l-59 -438h-197l60 438h-261l-59 -438h-197l60 438h-199zM471 633h260l37 258h-260z" />
<glyph unicode="$" horiz-adv-x="692" d="M37 358l192 13q12 -186 129 -187q88 0 93 185q0 74 -61 175q-21 36 -34 53l-40 55q-28 38 -65.5 90t-70.5 101.5t-70.5 141.5t-37.5 170q4 293 215 342v131h123v-125q201 -23 235 -282l-192 -25q-14 129 -93 125q-80 -2 -84 -162q0 -102 94 -227l41 -59q30 -42 37 -52 t33 -48l37 -52q41 -57 68 -109l26 -55q43 -94 43 -186q-4 -338 -245 -369v-217h-123v221q-236 41 -250 352z" />
<glyph unicode="%" horiz-adv-x="1001" d="M55 911v437q0 110 82 156q33 18 90.5 18t97.5 -44t44 -87l4 -43v-437q0 -107 -81 -157q-32 -19 -77 -19q-129 0 -156 135zM158 0l553 1505h131l-547 -1505h-137zM178 911q-4 -55 37 -55q16 0 25.5 14.5t9.5 26.5v451q2 55 -35 55q-18 0 -27.5 -13.5t-9.5 -27.5v-451z M631 158v436q0 108 81 156q33 20 79 20q125 0 153 -135l4 -41v-436q0 -110 -80 -156q-32 -18 -90.5 -18t-98.5 43t-44 88zM754 158q-4 -57 37 -58q37 0 34 58v436q2 55 -34 55q-18 0 -27.5 -13t-9.5 -28v-450z" />
<glyph unicode="&#x26;" horiz-adv-x="854" d="M49 304q0 126 44 225.5t126 222.5q-106 225 -106 442v18q0 94 47 180q70 130 223 130q203 0 252 -215q14 -61 12 -113q0 -162 -205 -434q76 -174 148 -285q33 96 47 211l176 -33q-16 -213 -92 -358q55 -63 92 -76v-235q-23 0 -86 37.5t-123 101.5q-123 -139 -252 -139 t-216 97t-87 223zM263 325.5q1 -65.5 28.5 -107.5t78.5 -42t117 86q-88 139 -174 295q-18 -30 -34.5 -98t-15.5 -133.5zM305 1194q0 -111 55 -246q101 156 101 252q-2 2 0 15.5t-2 36t-11 42.5q-19 52 -61.5 52t-62 -38t-19.5 -75v-39z" />
<glyph unicode="'" horiz-adv-x="309" d="M45 1012l72 266h-72v227h215v-227l-113 -266h-102z" />
<glyph unicode="(" horiz-adv-x="561" d="M66 645q0 143 29.5 292.5t73.5 261.5q92 235 159 343l30 47l162 -84q-38 -53 -86.5 -148t-82.5 -189.5t-61.5 -238t-27.5 -284.5t26.5 -282.5t64.5 -240.5q80 -207 141 -296l26 -39l-162 -84q-41 61 -96 173t-94 217.5t-70.5 257t-31.5 294.5z" />
<glyph unicode=")" horiz-adv-x="561" d="M41 -213q36 50 85.5 147t83.5 190t61.5 236.5t27.5 284.5t-26.5 282.5t-64.5 240.5q-78 205 -140 298l-27 39l162 84q41 -61 96 -173.5t94 -217t71 -257.5t32 -296t-30 -292.5t-74 -260.5q-92 -233 -159 -342l-30 -47z" />
<glyph unicode="*" horiz-adv-x="677" d="M74 1251l43 148l164 -70l-19 176h154l-19 -176l164 70l43 -148l-172 -34l115 -138l-131 -80l-78 152l-76 -152l-131 80l115 138z" />
<glyph unicode="+" horiz-adv-x="1060" d="M74 649v172h370v346h172v-346h371v-172h-371v-346h-172v346h-370z" />
<glyph unicode="," horiz-adv-x="309" d="M45 0v227h215v-227l-113 -266h-102l72 266h-72z" />
<glyph unicode="-" horiz-adv-x="444" d="M74 455v194h297v-194h-297z" />
<glyph unicode="." horiz-adv-x="321" d="M53 0v227h215v-227h-215z" />
<glyph unicode="/" horiz-adv-x="720" d="M8 -147l543 1652h162l-537 -1652h-168z" />
<glyph unicode="0" d="M68 309v887q0 42 17 106t45 107t88.5 78t144 35t144 -34t88.5 -81q55 -93 60 -178l2 -33v-887q0 -42 -17 -106t-45 -107t-88.5 -77.5t-144 -34.5t-144 33.5t-88.5 81.5q-55 94 -60 175zM289 309q0 -46 19.5 -78t54 -32t53 27.5t18.5 56.5l2 26v887q0 46 -19.5 78.5 t-54 32.5t-53 -28t-18.5 -54l-2 -29v-887z" />
<glyph unicode="1" horiz-adv-x="475" d="M25 1180v141q129 25 205 130q16 21 30 54h133v-1505h-221v1180h-147z" />
<glyph unicode="2" horiz-adv-x="731" d="M55 0v219l39 62q25 39 88.5 152.5t112.5 220t91 241.5t44 238q0 184 -73.5 184t-73.5 -184v-105h-222v105q0 389 295 389t295 -375q0 -336 -346 -928h350v-219h-600z" />
<glyph unicode="3" horiz-adv-x="686" d="M45 1071q0 249 63 343q29 42 84.5 75t134.5 33t136 -31t84.5 -71t44.5 -92q22 -71 22 -130q0 -291 -108 -399q127 -100 127 -414q0 -68 -19.5 -145.5t-47 -128t-85 -89t-136.5 -38.5t-135 31.5t-86 75.5t-48 113q-23 91 -23 230h217q2 -150 17.5 -203t59.5 -53t56.5 50.5 t12.5 104.5t1 102t0 63q-6 82 -14 95l-18 33q-12 22 -29 29q-55 22 -108 25h-19v184q133 7 156 73q12 34 12 91v105q0 146 -29 177q-16 17 -40 17q-41 0 -52.5 -49t-13.5 -207h-217z" />
<glyph unicode="4" horiz-adv-x="684" d="M25 328v194l323 983h221v-983h103v-194h-103v-328h-202v328h-342zM213 522h154v516h-13z" />
<glyph unicode="5" horiz-adv-x="704" d="M74 438h221v-59q0 -115 14.5 -159t52 -44t53 45t15.5 156v336q0 111 -70 110q-33 0 -59.5 -40t-26.5 -70h-186v792h535v-219h-344v-313q74 55 127 51q78 0 133 -40t77 -100q35 -98 35 -171v-336q0 -393 -289 -393q-78 0 -133 29.5t-84.5 71.5t-46.5 109q-24 98 -24 244z " />
<glyph unicode="6" horiz-adv-x="700" d="M66 309v856q0 356 288.5 356.5t288.5 -356.5v-94h-221q0 162 -11.5 210t-53.5 48t-56 -37t-14 -127v-268q59 37 124.5 37t119 -36t75.5 -93q37 -92 37 -189v-307q0 -90 -42 -187q-26 -61 -89 -99.5t-157.5 -38.5t-158 38.5t-88.5 99.5q-42 98 -42 187zM287 244 q0 -20 17.5 -44t49 -24t50 24.5t18.5 43.5v450q0 18 -18.5 43t-49 25t-48 -20.5t-19.5 -41.5v-456z" />
<glyph unicode="7" horiz-adv-x="589" d="M8 1286v219h557v-221l-221 -1284h-229l225 1286h-332z" />
<glyph unicode="8" horiz-adv-x="696" d="M53 322v176q0 188 115 297q-102 102 -102 276v127q0 213 147 293q57 31 135 31t135.5 -31t84 -71t42.5 -93q21 -66 21 -129v-127q0 -174 -103 -276q115 -109 115 -297v-176q0 -222 -153 -306q-60 -32 -142 -32t-141.5 32.5t-88 73.5t-44.5 96q-21 69 -21 136zM269 422 q1 -139 16.5 -187.5t57.5 -48.5t59.5 30t21.5 71t4 158t-13.5 174t-66.5 57t-66.5 -57.5t-12.5 -196.5zM284 1116q-1 -123 11 -173t53 -50t53.5 50t12.5 170t-12.5 167t-51.5 47t-52 -44t-14 -167z" />
<glyph unicode="9" horiz-adv-x="700" d="M57 340v94h222q0 -162 11 -210t53 -48t56.5 37t14.5 127v283q-59 -37 -125 -37t-119 35.5t-76 92.5q-37 96 -37 189v293q0 87 43 188q25 60 88.5 99t157.5 39t157.5 -39t88.5 -99q43 -101 43 -188v-856q0 -356 -289 -356t-289 356zM279 825q0 -18 18 -42.5t49 -24.5 t48.5 20.5t19.5 40.5v443q0 20 -17.5 43.5t-49.5 23.5t-50 -24.5t-18 -42.5v-437z" />
<glyph unicode=":" horiz-adv-x="362" d="M74 0v227h215v-227h-215zM74 893v227h215v-227h-215z" />
<glyph unicode=";" horiz-adv-x="362" d="M74 0v227h215v-227l-113 -266h-102l71 266h-71zM74 893v227h215v-227h-215z" />
<glyph unicode="&#x3c;" horiz-adv-x="1058" d="M74 649v160l911 475v-199l-698 -356l698 -356v-199z" />
<glyph unicode="=" horiz-adv-x="1058" d="M74 477v172h911v-172h-911zM74 864v172h911v-172h-911z" />
<glyph unicode="&#x3e;" horiz-adv-x="1058" d="M74 174v199l698 356l-698 356v199l911 -475v-160z" />
<glyph unicode="?" horiz-adv-x="645" d="M25 1260q24 67 78 131q105 128 235 122q82 -2 138 -33.5t82 -81.5q46 -88 46 -170.5t-80 -219.5l-57 -96q-18 -32 -42 -106.5t-24 -143.5v-256h-190v256q0 102 24.5 195t48 140t65.5 118t50 105t-9 67.5t-60 34.5t-78 -48t-49 -98zM199 0h215v227h-215v-227z" />
<glyph unicode="@" horiz-adv-x="872" d="M66 303v889q0 97 73 200q39 56 117 93t184.5 37t184 -37t116.5 -93q74 -105 74 -200v-793h-164l-20 56q-14 -28 -46 -48t-67 -20q-145 0 -145 172v485q0 170 145 170q71 0 113 -67v45q0 51 -45 104.5t-145.5 53.5t-145.5 -53.5t-45 -104.5v-889q0 -53 44 -103t153.5 -50 t160.5 63l152 -86q-109 -143 -320 -143q-106 0 -184 35.5t-117 90.5q-73 102 -73 193zM535 573q0 -53 48 -53t48 53v455q0 53 -48 53t-48 -53v-455z" />
<glyph unicode="A" horiz-adv-x="765" d="M20 0l228 1505h270l227 -1505h-215l-41 307h-213l-40 -307h-216zM307 541h152l-64 475l-6 39h-12z" />
<glyph unicode="B" horiz-adv-x="745" d="M82 0v1505h194q205 0 304.5 -91t99.5 -308q0 -106 -29.5 -175t-107.5 -136q14 -5 47 -38.5t54 -71.5q52 -97 52 -259q0 -414 -342 -426h-272zM303 219q74 0 109 31q55 56 55 211t-63 195q-42 26 -93 26h-8v-463zM303 885q87 0 119 39q45 55 45 138t-14.5 124t-30.5 60.5 t-45 28.5q-35 11 -74 11v-401z" />
<glyph unicode="C" horiz-adv-x="708" d="M68 309v887q0 42 17 106t45 107t88.5 78t144 35t144 -34t88.5 -81q55 -93 60 -178l2 -33v-207h-206v207q-2 0 0 11.5t-3.5 27.5t-12.5 33q-17 39 -68 39q-70 -10 -78 -111v-887q0 -43 21.5 -76.5t59.5 -33.5t59.5 27.5t21.5 56.5v233h206v-207q0 -42 -17 -106t-45 -107 t-88.5 -77.5t-144 -34.5t-144 33.5t-88.5 81.5q-55 94 -60 175z" />
<glyph unicode="D" horiz-adv-x="761" d="M82 0v1505h174q270 0 346 -113q31 -46 50.5 -95.5t28.5 -139.5t12 -177t3 -228.5t-3 -228.5t-12 -176t-28.5 -138t-50.5 -95t-80 -68q-106 -46 -266 -46h-174zM303 221q117 0 140.5 78t23.5 399v111q0 322 -23.5 398.5t-140.5 76.5v-1063z" />
<glyph unicode="E" horiz-adv-x="628" d="M82 0v1505h506v-227h-285v-395h205v-242h-205v-414h285v-227h-506z" />
<glyph unicode="F" horiz-adv-x="616" d="M82 0v1505h526v-227h-305v-395h205v-228h-205v-655h-221z" />
<glyph unicode="G" horiz-adv-x="737" d="M67 271.5q0 26.5 1 37.5v887q0 42 17 106t45 107t88.5 78t144 35t144 -34t88.5 -81q55 -93 60 -178l2 -33v-231h-221v231q0 46 -19.5 78.5t-54 32.5t-53 -28t-18.5 -54l-2 -29v-905q0 -46 19.5 -78.5t54 -32.5t53 28t18.5 54l2 29v272h-88v187h309v-750h-131l-26 72 q-70 -88 -172 -88q-203 0 -250 213q-11 48 -11 74.5z" />
<glyph unicode="H" horiz-adv-x="778" d="M82 0v1505h221v-622h172v622h221v-1505h-221v655h-172v-655h-221z" />
<glyph unicode="I" horiz-adv-x="385" d="M82 0v1505h221v-1505h-221z" />
<glyph unicode="J" horiz-adv-x="423" d="M12 -14v217q4 0 12.5 -1t29 2t35.5 12t28.5 34.5t13.5 62.5v1192h221v-1226q0 -137 -74 -216q-74 -78 -223 -78h-4q-19 0 -39 1z" />
<glyph unicode="K" horiz-adv-x="768" d="M82 0v1505h221v-526h8l195 526h215l-203 -495l230 -1010h-216l-153 655l-6 31h-6l-64 -154v-532h-221z" />
<glyph unicode="L" horiz-adv-x="604" d="M82 0v1505h221v-1300h293v-205h-514z" />
<glyph unicode="M" horiz-adv-x="991" d="M82 0v1505h270l131 -688l11 -80h4l10 80l131 688h270v-1505h-204v1010h-13l-149 -1010h-94l-142 946l-8 64h-12v-1010h-205z" />
<glyph unicode="N" horiz-adv-x="808" d="M82 0v1505h197l215 -784l18 -70h12v854h203v-1505h-197l-215 784l-18 70h-12v-854h-203z" />
<glyph unicode="O" d="M68 309v887q0 42 17 106t45 107t88.5 78t144 35t144 -34t88.5 -81q55 -93 60 -178l2 -33v-887q0 -42 -17 -106t-45 -107t-88.5 -77.5t-144 -34.5t-144 33.5t-88.5 81.5q-55 94 -60 175zM289 309q0 -46 19.5 -78t54 -32t53 27.5t18.5 56.5l2 26v887q0 46 -19.5 78.5 t-54 32.5t-53 -28t-18.5 -54l-2 -29v-887z" />
<glyph unicode="P" horiz-adv-x="720" d="M82 0v1505h221q166 0 277.5 -105.5t111.5 -345t-111.5 -346t-277.5 -106.5v-602h-221zM303 827q102 0 134 45.5t32 175.5t-33 181t-133 51v-453z" />
<glyph unicode="Q" horiz-adv-x="729" d="M68 309v887q0 42 17 106t45 107t88.5 78t144 35t144 -34t88.5 -81q55 -93 60 -178l2 -33v-887q0 -94 -45 -182q33 -43 88 -53v-189q-160 0 -227 117q-55 -18 -125 -18t-130 33.5t-88 81.5q-55 94 -60 175zM289 309q0 -46 19.5 -78t54 -32t53 27.5t18.5 56.5l2 26v887 q0 46 -19.5 78.5t-54 32.5t-53 -28t-18.5 -54l-2 -29v-887z" />
<glyph unicode="R" horiz-adv-x="739" d="M82 0v1505h221q377 0 377 -434q0 -258 -123 -342l141 -729h-221l-115 635h-59v-635h-221zM303 840q117 0 149 98q15 49 15 125t-15.5 125t-45.5 68q-44 30 -103 30v-446z" />
<glyph unicode="S" horiz-adv-x="702" d="M37 422l217 20q0 -256 104 -256q90 0 91 166q0 59 -32 117.5t-45 79.5l-54 79q-40 58 -77 113t-73.5 117t-68 148.5t-31.5 162.5q0 139 71.5 245t216.5 108h10q88 0 152 -36t94 -100q54 -120 54 -264l-217 -20q0 217 -89 217q-75 -2 -75 -146q0 -59 23 -105 q32 -66 58 -104l197 -296q31 -49 67 -139.5t36 -166.5q0 -378 -306 -378h-2q-229 0 -290 188q-31 99 -31 250z" />
<glyph unicode="T" horiz-adv-x="647" d="M4 1278v227h639v-227h-209v-1278h-221v1278h-209z" />
<glyph unicode="U" horiz-adv-x="749" d="M80 309v1196h221v-1196q0 -46 19.5 -78t54.5 -32t53 27.5t18 56.5l3 26v1196h221v-1196q0 -42 -17.5 -106t-45 -107t-88 -77.5t-144.5 -34.5t-144.5 33.5t-88.5 81.5q-55 97 -60 175z" />
<glyph unicode="V" horiz-adv-x="716" d="M18 1505h215l111 -827l8 -64h13l118 891h215l-229 -1505h-221z" />
<glyph unicode="W" horiz-adv-x="1036" d="M25 1505h204l88 -782l5 -49h16l100 831h160l100 -831h17l92 831h205l-203 -1505h-172l-115 801h-8l-115 -801h-172z" />
<glyph unicode="X" horiz-adv-x="737" d="M16 0l244 791l-240 714h218l120 -381l7 -18h8l127 399h217l-240 -714l244 -791h-217l-127 449l-4 18h-8l-132 -467h-217z" />
<glyph unicode="Y" horiz-adv-x="700" d="M14 1505h217l111 -481l6 -14h4l6 14l111 481h217l-225 -864v-641h-221v641z" />
<glyph unicode="Z" horiz-adv-x="626" d="M20 0v238l347 1048h-297v219h536v-219l-352 -1067h352v-219h-586z" />
<glyph unicode="[" horiz-adv-x="538" d="M82 -213v1718h399v-196h-202v-1325h202v-197h-399z" />
<glyph unicode="\" horiz-adv-x="792" d="M8 1692h162l614 -1872h-168z" />
<glyph unicode="]" horiz-adv-x="538" d="M57 -16h203v1325h-203v196h400v-1718h-400v197z" />
<glyph unicode="^" horiz-adv-x="1101" d="M53 809l381 696h234l381 -696h-199l-299 543l-299 -543h-199z" />
<glyph unicode="_" horiz-adv-x="1210" d="M74 -154h1063v-172h-1063v172z" />
<glyph unicode="`" horiz-adv-x="1024" d="M293 1489h215l106 -184h-159z" />
<glyph unicode="a" horiz-adv-x="681" d="M49 235q0 131 34 212t83 124t98 73t88 50.5t43 36.5v123q0 102 -57 102q-41 0 -50 -42t-9 -84v-39h-207v47q0 123 80.5 211t190 88t184.5 -74t75 -180v-688q0 -109 14 -195h-202q-18 20 -19 90h-14q-20 -37 -65.5 -71.5t-102.5 -34.5t-110.5 60t-53.5 191zM252 291 q0 -104 57 -105q35 0 60.5 19.5t25.5 48.5v287q-143 -62 -143 -250z" />
<glyph unicode="b" horiz-adv-x="686" d="M82 0v1505h207v-458q88 90 165 90t117.5 -69t40.5 -150v-715q0 -82 -41 -150.5t-118 -68.5q-33 0 -74 22.5t-66 44.5l-24 23v-74h-207zM289 246q0 -29 19.5 -48.5t42 -19.5t39 19.5t16.5 48.5v628q0 29 -16.5 48.5t-39 19.5t-42 -21.5t-19.5 -46.5v-628z" />
<glyph unicode="c" horiz-adv-x="645" d="M66 315v490q0 332 264 332q137 0 201.5 -71t64.5 -251v-88h-207v135q0 51 -12 70.5t-47 19.5q-58 0 -58 -90v-604q0 -90 58 -90q35 0 47 19.5t12 70.5v156h207v-109q0 -180 -64.5 -250.5t-201.5 -70.5q-264 0 -264 331z" />
<glyph unicode="d" horiz-adv-x="686" d="M74 203v715q0 82 41 150.5t118 68.5q33 0 74 -22.5t66 -45.5l24 -22v458h207v-1505h-207v74q-88 -90 -165 -90t-117.5 68.5t-40.5 150.5zM281 246q0 -29 16 -48.5t38.5 -19.5t42 19.5t19.5 48.5v628q0 25 -19.5 46.5t-42 21.5t-38.5 -19.5t-16 -48.5v-628z" />
<glyph unicode="e" horiz-adv-x="659" d="M66 279v563q0 36 16 94.5t42 97.5t81 71t129 32q199 0 252 -197q14 -51 14 -92v-326h-342v-256q0 -59 39 -88q16 -12 37 -12q70 10 74 113v122h192v-129q0 -37 -16.5 -93t-41 -95t-79.5 -69.5t-130 -30.5t-130.5 30.5t-80.5 73.5q-49 87 -54 160zM258 684h150v158 q0 48 -19.5 81t-53.5 33t-53.5 -28.5t-21.5 -57.5l-2 -28v-158z" />
<glyph unicode="f" horiz-adv-x="475" d="M20 934v186h105v31q0 190 51 270q23 35 71 63.5t115 28.5l97 -14v-178q-27 8 -62 8q-65 0 -65 -175v-5v-29h104v-186h-104v-934h-207v934h-105z" />
<glyph unicode="g" horiz-adv-x="700" d="M12 -184q0 94 162 170q-125 35 -125 149q0 45 40 93t89 75q-51 35 -80.5 95.5t-34.5 105.5l-4 43v305q0 35 16.5 91t41 94t79 69t126.5 31q135 0 206 -103q102 102 170 103v-185q-72 0 -120 -24l10 -70v-317q0 -37 -17.5 -90.5t-42 -90t-79 -66.5t-104.5 -30t-62 2 q-29 -25 -29 -46t11 -33.5t42 -20.5t45.5 -10t65.5 -10.5t95 -21.5t89 -41q96 -60 96 -205t-103 -212q-100 -65 -250 -65h-9q-156 2 -240 50t-84 165zM213 -150q0 -77 132 -77h3q59 0 108.5 19t49.5 54t-20.5 52.5t-90.5 29.5l-106 21q-76 -43 -76 -99zM262 509 q0 -17 15.5 -45t44.5 -28q63 6 63 101v307q-2 0 0 10q1 3 1 7q0 8 -3 19q-4 15 -9 30q-11 36 -46 36t-50.5 -25.5t-15.5 -52.5v-359z" />
<glyph unicode="h" horiz-adv-x="690" d="M82 0v1505h207v-479l32 32q79 79 145.5 79t106 -69t39.5 -150v-918h-206v887q-1 49 -50 49q-41 0 -67 -53v-883h-207z" />
<glyph unicode="i" horiz-adv-x="370" d="M82 0v1120h207v-1120h-207zM82 1298v207h207v-207h-207z" />
<glyph unicode="j" horiz-adv-x="364" d="M-45 -182q29 -8 57 -8q64 0 64 142v1168h207v-1149q0 -186 -51 -266q-23 -35 -71 -62.5t-115 -27.5t-91 12v191zM76 1298v207h207v-207h-207z" />
<glyph unicode="k" horiz-adv-x="641" d="M82 0v1505h207v-714h10l113 329h186l-149 -364l188 -756h-199l-102 453l-4 16h-10l-33 -82v-387h-207z" />
<glyph unicode="l" horiz-adv-x="370" d="M82 0v1505h207v-1505h-207z" />
<glyph unicode="m" horiz-adv-x="1021" d="M82 0v1120h207v-94q2 0 33 30q80 81 139 81q100 0 139 -125q125 125 194.5 125t109.5 -69t40 -150v-918h-194v887q-1 49 -56 49q-41 0 -78 -53v-883h-194v887q0 49 -55 49q-41 0 -78 -53v-883h-207z" />
<glyph unicode="n" horiz-adv-x="690" d="M82 0v1120h207v-94l32 32q79 79 145.5 79t106 -69t39.5 -150v-918h-206v887q-1 49 -50 49q-41 0 -67 -53v-883h-207z" />
<glyph unicode="o" horiz-adv-x="657" d="M63 279v563q0 40 15.5 96.5t40 95.5t80 71t129.5 32q199 0 252 -197q14 -51 14 -92v-576q0 -102 -56 -188q-26 -39 -80.5 -69.5t-129 -30.5t-130 30.5t-80.5 73.5q-52 92 -52 160zM257 259q0 -17 9 -44q18 -49 62 -49q70 10 71 113v563l1 19q0 19 -10 45q-18 50 -62 50 q-68 -10 -70 -114v-563q1 -1 1 -4z" />
<glyph unicode="p" horiz-adv-x="686" d="M82 -385v1505h207v-73q88 90 165 90t117.5 -69t40.5 -150v-715q0 -82 -41 -150.5t-118 -68.5q-33 0 -74 22.5t-66 44.5l-24 23v-459h-207zM289 246q0 -25 19.5 -46.5t42 -21.5t39 19.5t16.5 48.5v628q0 29 -16.5 48.5t-39 19.5t-42 -19.5t-19.5 -48.5v-628z" />
<glyph unicode="q" horiz-adv-x="686" d="M74 203v715q0 82 41 150.5t118 68.5q33 0 74 -22.5t66 -45.5l24 -22v73h207v-1505h-207v459q-88 -90 -165 -90t-117.5 68.5t-40.5 150.5zM281 246q0 -29 16 -48.5t38.5 -19.5t42 21.5t19.5 46.5v628q0 29 -19.5 48.5t-42 19.5t-38.5 -19.5t-16 -48.5v-628z" />
<glyph unicode="r" horiz-adv-x="503" d="M82 0v1120h207v-125q8 41 58.5 91.5t148.5 50.5v-230q-34 11 -77 11t-86.5 -39t-43.5 -101v-778h-207z" />
<glyph unicode="s" horiz-adv-x="630" d="M37 326h192q0 -170 97 -170q71 0 71 131q0 78 -129 202q-68 66 -98.5 99t-64 101.5t-33.5 134t12 114.5t39 95q59 100 201 104h11q161 0 211 -105q42 -86 42 -198h-193q0 131 -67 131q-63 -2 -64 -131q0 -33 23.5 -73t45 -62.5t66.5 -65.5q190 -182 191 -342 q0 -123 -64.5 -215t-199.5 -92q-197 0 -260 170q-29 76 -29 172z" />
<glyph unicode="t" horiz-adv-x="501" d="M20 934v186h105v277h207v-277h141v-186h-141v-557q0 -184 65 -184l76 8v-203q-45 -14 -112 -14t-114.5 28.5t-70 64.5t-34.5 96q-17 79 -17 187v574h-105z" />
<glyph unicode="u" horiz-adv-x="690" d="M78 203v917h207v-887q0 -49 49 -49q41 0 67 54v882h207v-1120h-207v94l-31 -32q-78 -78 -145.5 -78t-107 68.5t-39.5 150.5z" />
<glyph unicode="v" horiz-adv-x="602" d="M16 1120h201l68 -649l8 -72h16l76 721h201l-183 -1120h-204z" />
<glyph unicode="w" horiz-adv-x="905" d="M20 1120h189l65 -585l9 -64h12l96 649h123l86 -585l10 -64h13l73 649h189l-166 -1120h-172l-80 535l-10 63h-8l-91 -598h-172z" />
<glyph unicode="x" horiz-adv-x="618" d="M16 0l193 578l-176 542h194l74 -262l6 -31h4l6 31l74 262h195l-176 -542l192 -578h-201l-84 283l-6 30h-4l-6 -30l-84 -283h-201z" />
<glyph unicode="y" horiz-adv-x="634" d="M25 1120h202l82 -688l4 -57h9l4 57l82 688h202l-198 -1204q-16 -127 -94 -222t-193 -95l-92 4v184q16 -4 49 -4q61 6 97 61.5t36 122.5z" />
<glyph unicode="z" horiz-adv-x="532" d="M12 0v168l285 764h-240v188h459v-168l-285 -764h285v-188h-504z" />
<glyph unicode="{" horiz-adv-x="688" d="M61 453v163q72 0 102 49.5t30 90.5v397q0 223 96 298t342 71v-172q-135 2 -188.5 -38t-53.5 -159v-397q0 -143 -127 -221q127 -82 127 -222v-397q0 -119 53.5 -159t188.5 -38v-172q-246 -4 -342 71t-96 298v397q0 57 -41 97.5t-91 42.5z" />
<glyph unicode="|" horiz-adv-x="356" d="M82 -512v2204h192v-2204h-192z" />
<glyph unicode="}" horiz-adv-x="688" d="M57 -281q135 -2 188.5 38t53.5 159v397q0 139 127 222q-127 78 -127 221v397q0 119 -53 159t-189 38v172q246 4 342.5 -71t96.5 -298v-397q0 -63 41 -101.5t90 -38.5v-163q-72 -4 -101.5 -52.5t-29.5 -87.5v-397q0 -223 -96.5 -298t-342.5 -71v172z" />
<glyph unicode="~" horiz-adv-x="1280" d="M113 1352q35 106 115 200q34 41 94.5 74t121 33t116.5 -18.5t82 -33t83 -51.5q106 -72 174 -71q109 0 178 153l13 29l135 -57q-63 -189 -206 -276q-56 -34 -120 -34q-121 0 -272 101q-115 74 -178.5 74t-113.5 -45.5t-69 -90.5l-18 -45z" />
<glyph unicode="&#xa1;" horiz-adv-x="387" d="M74 -385l55 1100h129l55 -1100h-239zM86 893v227h215v-227h-215z" />
<glyph unicode="&#xa2;" horiz-adv-x="636" d="M66 508v489q0 297 208 328v242h123v-244q98 -16 144.5 -88t46.5 -227v-88h-189v135q0 90 -72.5 90t-72.5 -90v-604q0 -90 72 -91q74 0 73 91v155h189v-108q0 -156 -46 -228.5t-145 -89.5v-303h-123v301q-209 31 -208 330z" />
<glyph unicode="&#xa3;" horiz-adv-x="817" d="M4 63q8 20 23.5 53.5t70 91.5t117.5 68q37 111 37 189t-31 184h-188v137h147l-6 21q-78 254 -78 333t15.5 140t48.5 116q72 122 231 126q190 4 267 -126q65 -108 65 -276h-213q0 201 -115 197q-47 -2 -68.5 -51t-21.5 -139.5t70 -315.5l6 -25h211v-137h-174 q25 -100 24.5 -189t-57.5 -204q16 -8 44 -24q59 -35 89 -35q74 4 82 190l188 -22q-12 -182 -81.5 -281.5t-169.5 -99.5q-51 0 -143.5 51t-127.5 51t-63.5 -25.5t-40.5 -52.5l-12 -24z" />
<glyph unicode="&#xa5;" horiz-adv-x="720" d="M25 1505h217l110 -481l6 -14h4l7 14l110 481h217l-196 -753h147v-138h-176v-137h176v-137h-176v-340h-221v340h-176v137h176v137h-176v138h147z" />
<glyph unicode="&#xa8;" horiz-adv-x="1024" d="M272 1305v200h191v-200h-191zM561 1305v200h191v-200h-191z" />
<glyph unicode="&#xa9;" horiz-adv-x="1644" d="M53 751.5q0 317.5 225.5 544t543 226.5t543.5 -226.5t226 -544t-226 -542.5t-543.5 -225t-543 225t-225.5 542.5zM172 751.5q0 -266.5 191.5 -458t457.5 -191.5t459 191.5t193 459t-191.5 459t-459 191.5t-459 -192.5t-191.5 -459zM627 487v531q0 122 97 174q40 22 95 22 q147 0 182 -147l7 -49v-125h-138v142q0 11 -12 28.5t-37 17.5q-47 -2 -49 -63v-531q0 -63 49 -63q53 2 49 63v125h138v-125q0 -68 -40 -127q-18 -26 -57 -47.5t-108.5 -21.5t-117.5 49t-54 98z" />
<glyph unicode="&#xaa;" horiz-adv-x="681" d="M49 235q0 131 34 212t83 124t98 73t88 50.5t43 36.5v123q0 102 -57 102q-41 0 -50 -42t-9 -84v-39h-207v47q0 123 80.5 211t190 88t184.5 -74t75 -180v-688q0 -109 14 -195h-202q-18 20 -19 90h-14q-20 -37 -65.5 -71.5t-102.5 -34.5t-110.5 60t-53.5 191zM252 291 q0 -104 57 -105q35 0 60.5 19.5t25.5 48.5v287q-143 -62 -143 -250z" />
<glyph unicode="&#xad;" horiz-adv-x="444" d="M74 455v194h297v-194h-297z" />
<glyph unicode="&#xae;" horiz-adv-x="1644" d="M53 751.5q0 317.5 225.5 544t543 226.5t543.5 -226.5t226 -544t-226 -542.5t-543.5 -225t-543 225t-225.5 542.5zM172 751.5q0 -266.5 191.5 -458t457.5 -191.5t459 191.5t193 459t-191.5 459t-459 191.5t-459 -192.5t-191.5 -459zM625 313v879h196q231 0 232 -258 q0 -76 -16.5 -125t-71.5 -96l106 -400h-151l-95 365h-55v-365h-145zM770 805h45q43 0 65.5 21.5t27.5 45t5 61.5t-5 62.5t-27.5 46t-65.5 21.5h-45v-258z" />
<glyph unicode="&#xaf;" horiz-adv-x="1024" d="M313 1315v162h398v-162h-398z" />
<glyph unicode="&#xb2;" horiz-adv-x="731" d="M55 0v219l39 62q25 39 88.5 152.5t112.5 220t91 241.5t44 238q0 184 -73.5 184t-73.5 -184v-105h-222v105q0 389 295 389t295 -375q0 -336 -346 -928h350v-219h-600z" />
<glyph unicode="&#xb3;" horiz-adv-x="686" d="M45 1071q0 249 63 343q29 42 84.5 75t134.5 33t136 -31t84.5 -71t44.5 -92q22 -71 22 -130q0 -291 -108 -399q127 -100 127 -414q0 -68 -19.5 -145.5t-47 -128t-85 -89t-136.5 -38.5t-135 31.5t-86 75.5t-48 113q-23 91 -23 230h217q2 -150 17.5 -203t59.5 -53t56.5 50.5 t12.5 104.5t1 102t0 63q-6 82 -14 95l-18 33q-12 22 -29 29q-55 22 -108 25h-19v184q133 7 156 73q12 34 12 91v105q0 146 -29 177q-16 17 -40 17q-41 0 -52.5 -49t-13.5 -207h-217z" />
<glyph unicode="&#xb4;" horiz-adv-x="1024" d="M410 1305l106 184h215l-162 -184h-159z" />
<glyph unicode="&#xb7;" horiz-adv-x="215" d="M0 649v228h215v-228h-215z" />
<glyph unicode="&#xb8;" horiz-adv-x="1024" d="M426 -111h172v-141l-45 -133h-104l40 133h-63v141z" />
<glyph unicode="&#xb9;" horiz-adv-x="475" d="M25 1180v141q129 25 205 130q16 21 30 54h133v-1505h-221v1180h-147z" />
<glyph unicode="&#xba;" horiz-adv-x="657" d="M63 279v563q0 40 15.5 96.5t40 95.5t80 71t129.5 32q199 0 252 -197q14 -51 14 -92v-576q0 -102 -56 -188q-26 -39 -80.5 -69.5t-129 -30.5t-130 30.5t-80.5 73.5q-52 92 -52 160zM257 259q0 -17 9 -44q18 -49 62 -49q70 10 71 113v563l1 19q0 19 -10 45q-18 50 -62 50 q-68 -10 -70 -114v-563q1 -1 1 -4z" />
<glyph unicode="&#xbf;" horiz-adv-x="645" d="M41 -106q0 82 80 219l57 95q18 32 42 106.5t24 144.5v256h190v-256q0 -102 -24.5 -195.5t-48 -140.5t-65.5 -118t-50 -104.5t9 -67.5t60 -35t78 48.5t49 98.5l179 -84q-24 -66 -78 -132q-104 -126 -236 -122q-163 4 -220 115q-46 90 -46 172zM231 893v227h215v-227h-215z " />
<glyph unicode="&#xc0;" horiz-adv-x="765" d="M20 0l228 1505h270l227 -1505h-215l-41 307h-213l-40 -307h-216zM141 1823h215l107 -185h-160zM307 541h152l-64 475l-6 39h-12z" />
<glyph unicode="&#xc1;" horiz-adv-x="765" d="M20 0l228 1505h270l227 -1505h-215l-41 307h-213l-40 -307h-216zM293 1638l106 185h215l-161 -185h-160zM307 541h152l-64 475l-6 39h-12z" />
<glyph unicode="&#xc2;" horiz-adv-x="765" d="M20 0l228 1505h270l227 -1505h-215l-41 307h-213l-40 -307h-216zM133 1638l141 185h220l141 -185h-189l-63 72l-61 -72h-189zM307 541h152l-64 475l-6 39h-12z" />
<glyph unicode="&#xc3;" horiz-adv-x="765" d="M20 0l228 1505h270l227 -1505h-215l-41 307h-213l-40 -307h-216zM184 1632v152q49 39 95.5 39t104.5 -18.5t100.5 -19.5t97.5 32v-152q-51 -39 -95.5 -39t-102.5 19.5t-98 19.5t-102 -33zM307 541h152l-64 475l-6 39h-12z" />
<glyph unicode="&#xc4;" horiz-adv-x="765" d="M20 0l228 1505h270l227 -1505h-215l-41 307h-213l-40 -307h-216zM143 1638v201h191v-201h-191zM307 541h152l-64 475l-6 39h-12zM432 1638v201h191v-201h-191z" />
<glyph unicode="&#xc5;" horiz-adv-x="765" d="M20 0l228 1505h270l227 -1505h-215l-41 307h-213l-40 -307h-216zM231 1761.5q0 61.5 45.5 102.5t109 41t107.5 -41t44 -102.5t-44 -102.5t-107.5 -41t-109 41t-45.5 102.5zM307 541h152l-64 475l-6 39h-12zM309 1761.5q0 -28.5 23.5 -50t52.5 -21.5t52.5 21.5t23.5 50 t-23.5 50t-52.5 21.5t-52.5 -21.5t-23.5 -50z" />
<glyph unicode="&#xc6;" horiz-adv-x="1099" d="M16 0l420 1505h623v-227h-285v-395h205v-242h-205v-414h285v-227h-506v307h-227l-90 -307h-220zM393 541h160v514h-10z" />
<glyph unicode="&#xc7;" horiz-adv-x="708" d="M68 309v887q0 42 17 106t45 107t88.5 78t144 35t144 -34t88.5 -81q55 -93 60 -178l2 -33v-207h-206v207q-2 0 0 11.5t-3.5 27.5t-12.5 33q-17 39 -68 39q-70 -10 -78 -111v-887q0 -43 21.5 -76.5t59.5 -33.5t59.5 27.5t21.5 56.5v233h206v-207q0 -42 -17 -106t-45 -107 t-88.5 -77.5t-144 -34.5t-144 33.5t-88.5 81.5q-55 94 -60 175zM268 -111v-141h64l-41 -133h104l45 133v141h-172z" />
<glyph unicode="&#xc8;" horiz-adv-x="628" d="M82 0v1505h506v-227h-285v-395h205v-242h-205v-414h285v-227h-506zM111 1823h215l106 -185h-160z" />
<glyph unicode="&#xc9;" horiz-adv-x="628" d="M82 0v1505h506v-227h-285v-395h205v-242h-205v-414h285v-227h-506zM236 1638l106 185h215l-162 -185h-159z" />
<glyph unicode="&#xca;" horiz-adv-x="628" d="M82 0v1505h506v-227h-285v-395h205v-242h-205v-414h285v-227h-506zM84 1638l141 185h219l142 -185h-189l-63 72l-62 -72h-188z" />
<glyph unicode="&#xcb;" horiz-adv-x="628" d="M82 0v1505h506v-227h-285v-395h205v-242h-205v-414h285v-227h-506zM94 1638v201h191v-201h-191zM383 1638v201h190v-201h-190z" />
<glyph unicode="&#xcc;" horiz-adv-x="401" d="M-6 1823h215l106 -185h-159zM98 0v1505h221v-1505h-221z" />
<glyph unicode="&#xcd;" horiz-adv-x="401" d="M82 0v1505h221v-1505h-221zM86 1638l107 185h215l-162 -185h-160z" />
<glyph unicode="&#xce;" horiz-adv-x="370" d="M-66 1638l142 185h219l141 -185h-188l-64 72l-61 -72h-189zM74 0v1505h221v-1505h-221z" />
<glyph unicode="&#xcf;" horiz-adv-x="372" d="M-53 1638v201h190v-201h-190zM76 0v1505h221v-1505h-221zM236 1638v201h190v-201h-190z" />
<glyph unicode="&#xd0;" horiz-adv-x="761" d="M20 655v228h62v622h174q270 0 346 -113q31 -46 50.5 -95.5t28.5 -139.5t12 -177t3 -228.5t-3 -228.5t-12 -176t-28.5 -138t-50.5 -95t-80 -68q-106 -46 -266 -46h-174v655h-62zM303 221q117 0 141.5 81t22.5 452q2 371 -22.5 450.5t-141.5 79.5v-401h84v-228h-84v-434z " />
<glyph unicode="&#xd1;" horiz-adv-x="808" d="M82 0v1505h197l215 -784l18 -70h12v854h203v-1505h-197l-215 784l-18 70h-12v-854h-203zM207 1632v152q49 39 95 39t104.5 -18.5t102.5 -19.5t95 32v-152q-51 -39 -95 -39t-102.5 19.5t-100 19.5t-99.5 -33z" />
<glyph unicode="&#xd2;" d="M68 309v887q0 42 17 106t45 107t88.5 78t144 35t144 -34t88.5 -81q55 -93 60 -178l2 -33v-887q0 -42 -17 -106t-45 -107t-88.5 -77.5t-144 -34.5t-144 33.5t-88.5 81.5q-55 94 -60 175zM121 1823h215l106 -185h-159zM289 309q0 -46 19.5 -78t54 -32t53 27.5t18.5 56.5 l2 26v887q0 46 -19.5 78.5t-54 32.5t-53 -28t-18.5 -54l-2 -29v-887z" />
<glyph unicode="&#xd3;" d="M68 309v887q0 42 17 106t45 107t88.5 78t144 35t144 -34t88.5 -81q55 -93 60 -178l2 -33v-887q0 -42 -17 -106t-45 -107t-88.5 -77.5t-144 -34.5t-144 33.5t-88.5 81.5q-55 94 -60 175zM285 1638l106 185h215l-162 -185h-159zM289 309q0 -46 19.5 -78t54 -32t53 27.5 t18.5 56.5l2 26v887q0 46 -19.5 78.5t-54 32.5t-53 -28t-18.5 -54l-2 -29v-887z" />
<glyph unicode="&#xd4;" d="M68 309v887q0 42 17 106t45 107t88.5 78t144 35t144 -34t88.5 -81q55 -93 60 -178l2 -33v-887q0 -42 -17 -106t-45 -107t-88.5 -77.5t-144 -34.5t-144 33.5t-88.5 81.5q-55 94 -60 175zM113 1638l141 185h219l141 -185h-188l-64 72l-61 -72h-188zM289 309q0 -46 19.5 -78 t54 -32t53 27.5t18.5 56.5l2 26v887q0 46 -19.5 78.5t-54 32.5t-53 -28t-18.5 -54l-2 -29v-887z" />
<glyph unicode="&#xd5;" d="M68 309v887q0 42 17 106t45 107t88.5 78t144 35t144 -34t88.5 -81q55 -93 60 -178l2 -33v-887q0 -42 -17 -106t-45 -107t-88.5 -77.5t-144 -34.5t-144 33.5t-88.5 81.5q-55 94 -60 175zM164 1632v152q49 39 95 39t104.5 -18.5t102.5 -19.5t95 32v-152q-51 -39 -95 -39 t-102.5 19.5t-100 19.5t-99.5 -33zM289 309q0 -46 19.5 -78t54 -32t53 27.5t18.5 56.5l2 26v887q0 46 -19.5 78.5t-54 32.5t-53 -28t-18.5 -54l-2 -29v-887z" />
<glyph unicode="&#xd6;" d="M68 309v887q0 42 17 106t45 107t88.5 78t144 35t144 -34t88.5 -81q55 -93 60 -178l2 -33v-887q0 -42 -17 -106t-45 -107t-88.5 -77.5t-144 -34.5t-144 33.5t-88.5 81.5q-55 94 -60 175zM123 1638v201h190v-201h-190zM289 309q0 -46 19.5 -78t54 -32t53 27.5t18.5 56.5 l2 26v887q0 46 -19.5 78.5t-54 32.5t-53 -28t-18.5 -54l-2 -29v-887zM412 1638v201h190v-201h-190z" />
<glyph unicode="&#xd8;" d="M59 -20l47 157q-36 74 -36 148l-2 24v887q0 42 17 106t45 107t88.5 78t148 35t153.5 -43l15 47h122l-45 -150q43 -84 43 -155l2 -25v-887q0 -42 -17 -106t-45 -107t-88.5 -77.5t-150.5 -34.5t-153 43l-15 -47h-129zM289 309q0 -46 19.5 -78t54 -32t53 27.5t18.5 56.5 l2 26v488zM289 727l147 479q-8 100 -74 101q-35 0 -53 -28t-18 -54l-2 -29v-469z" />
<glyph unicode="&#xd9;" horiz-adv-x="749" d="M80 309q0 -42 17.5 -106t45 -107t88 -77.5t144.5 -34.5t144.5 33.5t88.5 81.5q55 97 60 175l2 35v1196h-221v-1196q0 -44 -19.5 -77t-54.5 -33t-53.5 27.5t-18.5 56.5l-2 26v1196h-221v-1196zM145 1823h215l107 -185h-160z" />
<glyph unicode="&#xda;" horiz-adv-x="749" d="M80 309q0 -42 17.5 -106t45 -107t88 -77.5t144.5 -34.5t144.5 33.5t88.5 81.5q55 97 60 175l2 35v1196h-221v-1196q0 -44 -19.5 -77t-54.5 -33t-53.5 27.5t-18.5 56.5l-2 26v1196h-221v-1196zM307 1638l107 185h215l-162 -185h-160z" />
<glyph unicode="&#xdb;" horiz-adv-x="749" d="M80 309q0 -42 17.5 -106t45 -107t88 -77.5t144.5 -34.5t144.5 33.5t88.5 81.5q55 97 60 175l2 35v1196h-221v-1196q0 -44 -19.5 -77t-54.5 -33t-53.5 27.5t-18.5 56.5l-2 26v1196h-221v-1196zM125 1638l141 185h219l142 -185h-189l-63 72l-62 -72h-188z" />
<glyph unicode="&#xdc;" horiz-adv-x="749" d="M80 309v1196h221v-1196q0 -46 19.5 -78t54.5 -32t53 27.5t18 56.5l3 26v1196h221v-1196q0 -42 -17.5 -106t-45 -107t-88 -77.5t-144.5 -34.5t-144.5 33.5t-88.5 81.5q-55 97 -60 175zM135 1638v201h191v-201h-191zM424 1638v201h190v-201h-190z" />
<glyph unicode="&#xdd;" horiz-adv-x="704" d="M16 1505l226 -864v-641h221v641l225 864h-217l-111 -481l-6 -14h-4l-6 14l-111 481h-217zM254 1638l106 185h215l-161 -185h-160z" />
<glyph unicode="&#xde;" d="M82 0v1505h219v-241h2q166 0 277.5 -105.5t111.5 -345.5t-111.5 -346.5t-277.5 -106.5v-360h-221zM303 586q102 0 134 45t32 175t-33 181t-133 51v-452z" />
<glyph unicode="&#xdf;" horiz-adv-x="733" d="M66 0v1235q0 123 70.5 205t206.5 82t204.5 -81t68.5 -197t-88 -181q152 -88 152 -488q0 -362 -87 -475q-46 -59 -102.5 -79.5t-144.5 -20.5v193q45 0 70 25q57 57 57 357q0 316 -57 377q-25 27 -70 27v141q35 0 60.5 33t25.5 84q0 100 -86 100q-74 0 -74 -102v-1235h-206 z" />
<glyph unicode="&#xe0;" horiz-adv-x="681" d="M49 235q0 131 34 212t83 124t98 73t88 50.5t43 36.5v123q0 102 -57 102q-41 0 -50 -42t-9 -84v-39h-207v47q0 123 80.5 211t190 88t184.5 -74t75 -180v-688q0 -109 14 -195h-202q-18 20 -19 90h-14q-20 -37 -65.5 -71.5t-102.5 -34.5t-110.5 60t-53.5 191zM102 1489h215 l107 -184h-160zM252 291q0 -104 57 -105q35 0 60.5 19.5t25.5 48.5v287q-143 -62 -143 -250z" />
<glyph unicode="&#xe1;" horiz-adv-x="681" d="M49 235q0 131 34 212t83 124t98 73t88 50.5t43 36.5v123q0 102 -57 102q-41 0 -50 -42t-9 -84v-39h-207v47q0 123 80.5 211t190 88t184.5 -74t75 -180v-688q0 -109 14 -195h-202q-18 20 -19 90h-14q-20 -37 -65.5 -71.5t-102.5 -34.5t-110.5 60t-53.5 191zM252 291 q0 -104 57 -105q35 0 60.5 19.5t25.5 48.5v287q-143 -62 -143 -250zM264 1305l107 184h215l-162 -184h-160z" />
<glyph unicode="&#xe2;" horiz-adv-x="681" d="M49 235q0 131 34 212t83 124t98 73t88 50.5t43 36.5v123q0 102 -57 102q-41 0 -50 -42t-9 -84v-39h-207v47q0 123 80.5 211t190 88t184.5 -74t75 -180v-688q0 -109 14 -195h-202q-18 20 -19 90h-14q-20 -37 -65.5 -71.5t-102.5 -34.5t-110.5 60t-53.5 191zM90 1305 l141 184h220l141 -184h-189l-63 71l-61 -71h-189zM252 291q0 -104 57 -105q35 0 60.5 19.5t25.5 48.5v287q-143 -62 -143 -250z" />
<glyph unicode="&#xe3;" horiz-adv-x="681" d="M49 235q0 131 34 212t83 124t98 73t88 50.5t43 36.5v123q0 102 -57 102q-41 0 -50 -42t-9 -84v-39h-207v47q0 123 80.5 211t190 88t184.5 -74t75 -180v-688q0 -109 14 -195h-202q-18 20 -19 90h-14q-20 -37 -65.5 -71.5t-102.5 -34.5t-110.5 60t-53.5 191zM143 1305v151 q49 39 95.5 39t104.5 -18.5t97 -19.5t101 32v-152q-51 -39 -95.5 -39t-102.5 19.5t-99 19.5t-101 -32zM252 291q0 -104 57 -105q35 0 60.5 19.5t25.5 48.5v287q-143 -62 -143 -250z" />
<glyph unicode="&#xe4;" horiz-adv-x="681" d="M49 235q0 131 34 212t83 124t98 73t88 50.5t43 36.5v123q0 102 -57 102q-41 0 -50 -42t-9 -84v-39h-207v47q0 123 80.5 211t190 88t184.5 -74t75 -180v-688q0 -109 14 -195h-202q-18 20 -19 90h-14q-20 -37 -65.5 -71.5t-102.5 -34.5t-110.5 60t-53.5 191zM102 1305v200 h191v-200h-191zM252 291q0 -104 57 -105q35 0 60.5 19.5t25.5 48.5v287q-143 -62 -143 -250zM391 1305v200h191v-200h-191z" />
<glyph unicode="&#xe5;" horiz-adv-x="681" d="M49 235q0 131 34 212t83 124t98 73t88 50.5t43 36.5v123q0 102 -57 102q-41 0 -50 -42t-9 -84v-39h-207v47q0 123 80.5 211t190 88t184.5 -74t75 -180v-688q0 -109 14 -195h-202q-18 20 -19 90h-14q-20 -37 -65.5 -71.5t-102.5 -34.5t-110.5 60t-53.5 191zM188 1421.5 q0 61.5 45.5 102.5t109 41t107.5 -41t44 -102.5t-44 -102.5t-107.5 -41t-109 41t-45.5 102.5zM252 291q0 -104 57 -105q35 0 60.5 19.5t25.5 48.5v287q-143 -62 -143 -250zM266 1421.5q0 -28.5 23.5 -50t52.5 -21.5t52.5 21.5t23.5 50t-23.5 50t-52.5 21.5t-52.5 -21.5 t-23.5 -50z" />
<glyph unicode="&#xe6;" horiz-adv-x="989" d="M49 235q0 131 34 212t83 124t98 73t88 50.5t43 36.5v123q0 102 -57 102q-41 0 -50 -42t-9 -84v-39h-207v47q0 123 80.5 211t197.5 88q84 0 152 -52q66 51 162 52q199 0 251 -197q14 -51 15 -92v-326h-342v-256q0 -60 38 -88q17 -12 38 -12q70 10 73 113v122h193v-129 q0 -37 -16.5 -93t-41 -95t-80 -69.5t-130.5 -30.5q-158 0 -226 131q-102 -131 -221 -131q-59 0 -112.5 60t-53.5 191zM252 291q0 -104 57 -105q35 0 60.5 19.5t25.5 48.5v287q-143 -62 -143 -250zM588 684h149v158q0 48 -19.5 81t-53 33t-53 -28.5t-21.5 -57.5l-2 -28v-158z " />
<glyph unicode="&#xe7;" horiz-adv-x="645" d="M66 315v490q0 332 264 332q137 0 201.5 -71t64.5 -251v-88h-207v135q0 51 -12 70.5t-47 19.5q-58 0 -58 -90v-604q0 -90 58 -90q35 0 47 19.5t12 70.5v156h207v-109q0 -180 -64.5 -250.5t-201.5 -70.5q-264 0 -264 331zM238 -111v-141h63l-41 -133h105l45 133v141h-172z " />
<glyph unicode="&#xe8;" horiz-adv-x="659" d="M66 279v563q0 36 16 94.5t42 97.5t81 71t129 32q199 0 252 -197q14 -51 14 -92v-326h-342v-256q0 -59 39 -88q16 -12 37 -12q70 10 74 113v122h192v-129q0 -37 -16.5 -93t-41 -95t-79.5 -69.5t-130 -30.5t-130.5 30.5t-80.5 73.5q-49 87 -54 160zM102 1489h215l107 -184 h-160zM258 684h150v158q0 48 -19.5 81t-53.5 33t-53.5 -28.5t-21.5 -57.5l-2 -28v-158z" />
<glyph unicode="&#xe9;" horiz-adv-x="659" d="M66 279v563q0 36 16 94.5t42 97.5t81 71t129 32q199 0 252 -197q14 -51 14 -92v-326h-342v-256q0 -59 39 -88q16 -12 37 -12q70 10 74 113v122h192v-129q0 -37 -16.5 -93t-41 -95t-79.5 -69.5t-130 -30.5t-130.5 30.5t-80.5 73.5q-49 87 -54 160zM258 684h150v158 q0 48 -19.5 81t-53.5 33t-53.5 -28.5t-21.5 -57.5l-2 -28v-158zM264 1305l107 184h215l-162 -184h-160z" />
<glyph unicode="&#xea;" horiz-adv-x="659" d="M66 279v563q0 36 16 94.5t42 97.5t81 71t129 32q199 0 252 -197q14 -51 14 -92v-326h-342v-256q0 -59 39 -88q16 -12 37 -12q70 10 74 113v122h192v-129q0 -37 -16.5 -93t-41 -95t-79.5 -69.5t-130 -30.5t-130.5 30.5t-80.5 73.5q-49 87 -54 160zM80 1305l141 184h219 l142 -184h-189l-63 71l-62 -71h-188zM258 684h150v158q0 48 -19.5 81t-53.5 33t-53.5 -28.5t-21.5 -57.5l-2 -28v-158z" />
<glyph unicode="&#xeb;" horiz-adv-x="659" d="M66 279v563q0 36 16 94.5t42 97.5t81 71t129 32q199 0 252 -197q14 -51 14 -92v-326h-342v-256q0 -59 39 -88q16 -12 37 -12q70 10 74 113v122h192v-129q0 -37 -16.5 -93t-41 -95t-79.5 -69.5t-130 -30.5t-130.5 30.5t-80.5 73.5q-49 87 -54 160zM90 1305v200h191v-200 h-191zM258 684h150v158q0 48 -19.5 81t-53.5 33t-53.5 -28.5t-21.5 -57.5l-2 -28v-158zM379 1305v200h190v-200h-190z" />
<glyph unicode="&#xec;" horiz-adv-x="370" d="M-33 1489h215l107 -184h-160zM82 0h207v1120h-207v-1120z" />
<glyph unicode="&#xed;" horiz-adv-x="370" d="M82 0h207v1120h-207v-1120zM82 1305l106 184h215l-161 -184h-160z" />
<glyph unicode="&#xee;" horiz-adv-x="370" d="M-66 1305l142 184h219l141 -184h-188l-64 71l-61 -71h-189zM82 0h207v1120h-207v-1120z" />
<glyph unicode="&#xef;" horiz-adv-x="372" d="M-53 1305v200h190v-200h-190zM82 0v1120h207v-1120h-207zM236 1305v200h190v-200h-190z" />
<glyph unicode="&#xf0;" horiz-adv-x="673" d="M76 279v579q0 279 172 279q63 0 155 -78q-12 109 -51 203l-82 -72l-55 63l100 88l-45 66l109 100q25 -27 53 -61l94 82l56 -66l-101 -88q125 -201 125 -446v-656q0 -102 -56 -188q-26 -39 -80 -69.5t-129 -30.5t-130 30.5t-80 73.5q-53 91 -53 160zM270 267.5 q-2 -11.5 2 -29t10 -34.5q16 -38 58 -38q70 10 72 113v563q-2 0 0 11t-2 28.5t-10 34.5q-16 40 -60 40q-68 -10 -70 -114v-563q2 0 0 -11.5z" />
<glyph unicode="&#xf1;" horiz-adv-x="690" d="M82 0v1120h207v-94l32 32q79 79 145.5 79t106 -69t39.5 -150v-918h-206v887q-1 49 -50 49q-41 0 -67 -53v-883h-207zM147 1305v151q49 39 95.5 39t105 -18.5t97 -19.5t100.5 32v-152q-51 -39 -95.5 -39t-102.5 19.5t-99 19.5t-101 -32z" />
<glyph unicode="&#xf2;" horiz-adv-x="657" d="M63 279v563q0 40 15.5 96.5t40 95.5t80 71t129.5 32q199 0 252 -197q14 -51 14 -92v-576q0 -102 -56 -188q-26 -39 -80.5 -69.5t-129 -30.5t-130 30.5t-80.5 73.5q-52 92 -52 160zM98 1489h215l107 -184h-160zM258 267.5q-2 -11.5 2 -29t10 -34.5q14 -38 58 -38 q70 10 71 113v563q-2 0 0 11t-2 28.5t-10 34.5q-15 40 -59 40q-68 -10 -70 -114v-563q2 0 0 -11.5z" />
<glyph unicode="&#xf3;" horiz-adv-x="657" d="M63 279v563q0 40 15.5 96.5t40 95.5t80 71t129.5 32q199 0 252 -197q14 -51 14 -92v-576q0 -102 -56 -188q-26 -39 -80.5 -69.5t-129 -30.5t-130 30.5t-80.5 73.5q-52 92 -52 160zM258 267.5q-2 -11.5 2 -29t10 -34.5q14 -38 58 -38q70 10 71 113v563q-2 0 0 11t-2 28.5 t-10 34.5q-15 40 -59 40q-68 -10 -70 -114v-563q2 0 0 -11.5zM260 1305l107 184h215l-162 -184h-160z" />
<glyph unicode="&#xf4;" horiz-adv-x="657" d="M63 279v563q0 40 15.5 96.5t40 95.5t80 71t129.5 32q199 0 252 -197q14 -51 14 -92v-576q0 -102 -56 -188q-26 -39 -80.5 -69.5t-129 -30.5t-130 30.5t-80.5 73.5q-52 92 -52 160zM78 1305l141 184h219l142 -184h-189l-63 71l-62 -71h-188zM258 267.5q-2 -11.5 2 -29 t10 -34.5q14 -38 58 -38q70 10 71 113v563q-2 0 0 11t-2 28.5t-10 34.5q-15 40 -59 40q-68 -10 -70 -114v-563q2 0 0 -11.5z" />
<glyph unicode="&#xf5;" horiz-adv-x="657" d="M63 279v563q0 40 15.5 96.5t40 95.5t80 71t129.5 32q199 0 252 -197q14 -51 14 -92v-576q0 -102 -56 -188q-26 -39 -80.5 -69.5t-129 -30.5t-130 30.5t-80.5 73.5q-52 92 -52 160zM131 1305v151q49 39 95.5 39t104.5 -18.5t98.5 -19.5t98.5 32v-152q-51 -39 -95 -39 t-102 19.5t-101 19.5t-99 -32zM258 267.5q-2 -11.5 2 -29t10 -34.5q14 -38 58 -38q70 10 71 113v563q-2 0 0 11t-2 28.5t-10 34.5q-15 40 -59 40q-68 -10 -70 -114v-563q2 0 0 -11.5z" />
<glyph unicode="&#xf6;" horiz-adv-x="657" d="M63 279v563q0 40 15.5 96.5t40 95.5t80 71t129.5 32q199 0 252 -197q14 -51 14 -92v-576q0 -102 -56 -188q-26 -39 -80.5 -69.5t-129 -30.5t-130 30.5t-80.5 73.5q-52 92 -52 160zM90 1305v200h191v-200h-191zM258 267.5q-2 -11.5 2 -29t10 -34.5q14 -38 58 -38 q70 10 71 113v563q-2 0 0 11t-2 28.5t-10 34.5q-15 40 -59 40q-68 -10 -70 -114v-563q2 0 0 -11.5zM379 1305v200h190v-200h-190z" />
<glyph unicode="&#xf8;" horiz-adv-x="657" d="M63 279v563q0 40 15.5 96.5t40 95.5t80 71t118 32t117.5 -19l21 80h75l-30 -121q88 -84 94 -229v-576q0 -102 -56 -188q-26 -39 -80.5 -69.5t-120.5 -30.5t-112 16l-20 -78h-80l31 121q-41 39 -64.5 97.5t-25.5 97.5zM258 436l125 486q-18 35 -55 34q-68 -10 -70 -114 v-406zM274 197q17 -31 54 -31q70 10 71 113v403z" />
<glyph unicode="&#xf9;" horiz-adv-x="690" d="M78 203v917h207v-887q0 -49 49 -49q41 0 67 54v882h207v-1120h-207v94l-31 -32q-78 -78 -145.5 -78t-107 68.5t-39.5 150.5zM113 1489h215l106 -184h-160z" />
<glyph unicode="&#xfa;" horiz-adv-x="690" d="M78 203v917h207v-887q0 -49 49 -49q41 0 67 54v882h207v-1120h-207v94l-31 -32q-78 -78 -145.5 -78t-107 68.5t-39.5 150.5zM274 1305l107 184h215l-162 -184h-160z" />
<glyph unicode="&#xfb;" horiz-adv-x="690" d="M78 203v917h207v-887q0 -49 49 -49q41 0 67 54v882h207v-1120h-207v94l-31 -32q-78 -78 -145.5 -78t-107 68.5t-39.5 150.5zM94 1305l142 184h219l141 -184h-188l-64 71l-61 -71h-189z" />
<glyph unicode="&#xfc;" horiz-adv-x="690" d="M78 203v917h207v-887q0 -49 49 -49q41 0 67 54v882h207v-1120h-207v94l-31 -32q-78 -78 -145.5 -78t-107 68.5t-39.5 150.5zM106 1305v200h191v-200h-191zM395 1305v200h191v-200h-191z" />
<glyph unicode="&#xfd;" horiz-adv-x="634" d="M25 1120l190 -1153q0 -68 -36 -123t-97 -61l-49 4v-184q70 -4 92 -4q115 0 192.5 95t94.5 222l198 1204h-202l-82 -688l-4 -57h-9l-4 57l-82 688h-202zM231 1305l107 184h215l-162 -184h-160z" />
<glyph unicode="&#xfe;" horiz-adv-x="686" d="M82 -385v1890h207v-458q88 90 165 90t117.5 -69t40.5 -150v-715q0 -82 -41 -150.5t-118 -68.5q-33 0 -74 22.5t-66 44.5l-24 23v-459h-207zM289 246q0 -25 19.5 -46.5t42 -21.5t39 19.5t16.5 48.5v628q0 29 -16.5 48.5t-39 19.5t-42 -19.5t-19.5 -48.5v-628z" />
<glyph unicode="&#xff;" horiz-adv-x="634" d="M25 1120h202l82 -688l4 -57h9l4 57l82 688h202l-198 -1204q-16 -127 -94 -222t-193 -95l-92 4v184q16 -4 49 -4q61 6 97 61.5t36 122.5zM78 1305v200h190v-200h-190zM367 1305v200h190v-200h-190z" />
<glyph unicode="&#x152;" horiz-adv-x="983" d="M68 309v887q0 41 17 101.5t45 100.5t88.5 73.5t143.5 33.5h580v-227h-285v-395h205v-242h-205v-414h285v-227h-580q-84 0 -144 31.5t-88 78.5q-55 91 -60 169zM289 309q0 -46 19.5 -78t54 -32t53 27.5t18.5 56.5l2 26v901q-6 96 -74 97q-35 0 -53 -28t-18 -54l-2 -29 v-887z" />
<glyph unicode="&#x153;" horiz-adv-x="995" d="M63 279v563q0 40 15.5 96.5t40 95.5t80 71t145.5 32t156 -60q66 59 170 60q199 0 252 -197q14 -51 14 -92v-326h-342v-250q0 -46 22.5 -76t53.5 -30q70 10 73 113v122h193v-129q0 -37 -16.5 -93t-41 -95t-80 -69.5t-146 -30.5t-154.5 57q-68 -57 -156 -57t-143.5 30.5 t-80.5 73.5q-52 92 -52 160zM258 267.5q-2 -11.5 2 -29t10 -34.5q14 -38 58 -38q70 10 71 113v563q-2 0 0 11t-2 28.5t-10 34.5q-15 40 -59 40q-68 -10 -70 -114v-563q2 0 0 -11.5zM594 684h149v158q0 48 -19 81t-58 33t-55.5 -37.5t-16.5 -70.5v-164z" />
<glyph unicode="&#x178;" horiz-adv-x="704" d="M16 1505h217l111 -481l6 -14h4l6 14l111 481h217l-225 -864v-641h-221v641zM113 1638v201h190v-201h-190zM401 1638v201h191v-201h-191z" />
<glyph unicode="&#x2c6;" horiz-adv-x="1021" d="M260 1305l141 184h220l141 -184h-189l-63 71l-61 -71h-189z" />
<glyph unicode="&#x2dc;" horiz-adv-x="1024" d="M313 1305v151q49 39 95.5 39t104.5 -18.5t97 -19.5t101 32v-152q-51 -39 -95.5 -39t-102.5 19.5t-99 19.5t-101 -32z" />
<glyph unicode="&#x2000;" horiz-adv-x="952" />
<glyph unicode="&#x2001;" horiz-adv-x="1905" />
<glyph unicode="&#x2002;" horiz-adv-x="952" />
<glyph unicode="&#x2003;" horiz-adv-x="1905" />
<glyph unicode="&#x2004;" horiz-adv-x="635" />
<glyph unicode="&#x2005;" horiz-adv-x="476" />
<glyph unicode="&#x2006;" horiz-adv-x="317" />
<glyph unicode="&#x2007;" horiz-adv-x="317" />
<glyph unicode="&#x2008;" horiz-adv-x="238" />
<glyph unicode="&#x2009;" horiz-adv-x="381" />
<glyph unicode="&#x200a;" horiz-adv-x="105" />
<glyph unicode="&#x2010;" horiz-adv-x="444" d="M74 455v194h297v-194h-297z" />
<glyph unicode="&#x2011;" horiz-adv-x="444" d="M74 455v194h297v-194h-297z" />
<glyph unicode="&#x2012;" horiz-adv-x="444" d="M74 455v194h297v-194h-297z" />
<glyph unicode="&#x2013;" horiz-adv-x="806" d="M74 649v195h659v-195h-659z" />
<glyph unicode="&#x2014;" horiz-adv-x="972" d="M74 649v195h825v-195h-825z" />
<glyph unicode="&#x2018;" horiz-adv-x="309" d="M49 1012v227l113 266h102l-71 -266h71v-227h-215z" />
<glyph unicode="&#x2019;" horiz-adv-x="309" d="M45 1012l72 266h-72v227h215v-227l-113 -266h-102z" />
<glyph unicode="&#x201a;" horiz-adv-x="309" d="M45 0v227h215v-227l-113 -266h-102l72 266h-72z" />
<glyph unicode="&#x201c;" horiz-adv-x="624" d="M53 1012v227l113 266h102l-71 -266h71v-227h-215zM356 1012v227l113 266h102l-71 -266h71v-227h-215z" />
<glyph unicode="&#x201d;" horiz-adv-x="624" d="M53 1012l72 266h-72v227h215v-227l-112 -266h-103zM356 1012l72 266h-72v227h215v-227l-112 -266h-103z" />
<glyph unicode="&#x201e;" horiz-adv-x="624" d="M53 0v227h215v-227l-112 -266h-103l72 266h-72zM356 0v227h215v-227l-112 -266h-103l72 266h-72z" />
<glyph unicode="&#x2022;" horiz-adv-x="663" d="M82 815q0 104 72.5 177t177 73t177.5 -72.5t73 -177t-73 -177.5t-177 -73t-177 73t-73 177z" />
<glyph unicode="&#x2026;" horiz-adv-x="964" d="M53 0v227h215v-227h-215zM375 0v227h215v-227h-215zM696 0v227h215v-227h-215z" />
<glyph unicode="&#x202f;" horiz-adv-x="381" />
<glyph unicode="&#x2039;" horiz-adv-x="1058" d="M74 649v160l911 475v-199l-698 -356l698 -356v-199z" />
<glyph unicode="&#x203a;" horiz-adv-x="1058" d="M74 174v199l698 356l-698 356v199l911 -475v-160z" />
<glyph unicode="&#x205f;" horiz-adv-x="476" />
<glyph unicode="&#x20ac;" horiz-adv-x="813" d="M53 547v137h107v137h-107v137h107v238q0 42 17.5 106t45 107t88 78t144.5 35t144 -34t88 -81q53 -90 61 -178l2 -33v-84h-207v84q-2 0 0 11.5t-3 27.5t-12 33q-18 39 -69 39q-70 -10 -78 -111v-238h233v-137h-233v-137h233v-137h-233v-238q0 -43 21.5 -76.5t59.5 -33.5 t58.5 27.5t20.5 56.5l2 26v84h207v-84q0 -38 -17.5 -104t-45.5 -109t-88 -77.5t-144 -34.5t-144.5 33.5t-88.5 81.5q-55 97 -60 175l-2 35v238h-107z" />
<glyph unicode="&#x2122;" horiz-adv-x="937" d="M74 1401v104h321v-104h-104v-580h-113v580h-104zM440 821v684h138l67 -319h6l68 319h137v-684h-104v449l-78 -449h-51l-80 449v-449h-103z" />
<glyph unicode="&#xe000;" horiz-adv-x="1120" d="M0 0v1120h1120v-1120h-1120z" />
<glyph unicode="&#xfb01;" horiz-adv-x="772" d="M20 934v186h105v31q0 172 31 231q16 31 42 67q53 71 181 71q59 0 127 -13l20 -2v-184q-41 12 -91 12t-69.5 -18.5t-25.5 -58.5q-8 -52 -8 -107v-29h358v-1120h-207v934h-151v-934h-207v934h-105z" />
<glyph unicode="&#xfb02;" horiz-adv-x="772" d="M20 934v186h105v31q0 172 31 231q16 31 42 67q53 71 181 71q59 0 127 -13l20 -2h164v-1505h-207v1329q-37 4 -67.5 4t-50 -18.5t-25.5 -58.5q-8 -52 -8 -107v-29h104v-186h-104v-934h-207v934h-105z" />
<glyph unicode="&#xfb03;" horiz-adv-x="1320" d="M20 934v186h105v31q0 190 51 270q23 35 71 63.5t115 28.5l97 -14v-178q-27 8 -62 8q-66 0 -65 -180v-29h104v-186h-104v-934h-207v934h-105zM495 934v186h105v31q0 190 51 270q23 35 71 63.5t115 28.5l97 -14v-178q-27 8 -62 8q-66 0 -65 -180v-29h104v-186h-104v-934 h-207v934h-105zM1032 0v1120h207v-1120h-207zM1032 1298v207h207v-207h-207z" />
<glyph unicode="&#xfb04;" horiz-adv-x="1320" d="M20 934v186h105v31q0 190 51 270q23 35 71 63.5t115 28.5l97 -14v-178q-27 8 -62 8q-66 0 -65 -180v-29h104v-186h-104v-934h-207v934h-105zM495 934v186h105v31q0 190 51 270q23 35 71 63.5t115 28.5l97 -14v-178q-27 8 -62 8q-66 0 -65 -180v-29h104v-186h-104v-934 h-207v934h-105zM1032 0v1505h207v-1505h-207z" />
</font>
</defs>
</svg>
